Details for this torrent 

The Conjuring 2013 WEBRip XViD AC3 ReLeNTLesS
Type:
Video > Movies
Files:
3
Size:
866.85 MiB (908956716 Bytes)
Spoken language(s):
English
Texted language(s):
Chinese
Tag(s):
the conjuring web rip horror suspense
Uploaded:
2013-08-04 04:02:30 GMT
By:
horrorhound Helper
Seeders:
1
Leechers:
0
Comments
127  

Info Hash:
460FE7777C8766AAB458F8567C5193623DEBC381




(Problems with magnets links are fixed by upgrading your torrent client!)
The Conjuring 2013 WEBRip XViD AC3 ReLeNTLesS


General
Complete name: The.Conjuring.2013.WEBRip.XViD.AC3.ReLeNTLesS.avi
Format: AVI
Format/Info: Audio Video Interleave
File size: 844 MiB
Duration: 1h 47mn
Overall bit rate: 1 099 Kbps


Video
ID: 0
Format: MPEG-4 Visual
Format profile: Advanced [email protected]
Format settings, BVOP: 2
Format settings, QPel: No
Format settings, GMC: No warppoints
Format settings, Matrix: Default (H.263)
Codec ID: XVID
Codec ID/Hint: XviD
Duration: 1h 47mn
Bit rate: 963 Kbps
Width: 688 pixels
Height: 272 pixels
Display aspect ratio: 2.529
Frame rate: 25.000 fps
Color space: YUV
Chroma subsampling: 4:2:0
Bit depth: 8 bits
Scan type: Progressive
Compression mode: Lossy
Bits/(Pixel*Frame): 0.206
Stream size: 740 MiB (88%)
Writing library: XviD 1.2.1 (UTC 2008-12-04)


Audio
ID: 1
Format: AC-3
Format/Info: Audio Coding 3
Mode extension: CM (complete main)
Format settings, Endianness: Big
Codec ID: 2000
Duration: 1h 47mn
Bit rate mode: Constant
Bit rate: 128 Kbps
Channel(s): 2 channels
Channel positions: Front: L R
Sampling rate: 44.1 KHz
Bit depth: 16 bits
Compression mode: Lossy
Stream size: 98.3 MiB (12%)
Alignment: Aligned on interleaves
Interleave, duration: 70 ms (1.74 video frames)
Interleave, preload duration: 208 ms
Title: The.Conjuring.2013.ReLeNTLesS.audio
Source: SmY cheers
Sample Included: Yes


PL0T
Paranormal investigators Ed and Lorraine Warren work to help a family terrorized by a dark presence in their farmhouse


CAST
Director: James Wan
Writers: Chad Hayes, Carey Hayes
Stars: Vera Farmiga, Patrick Wilson, Lili Taylor

Comments