Details for this torrent 

FreakyLinks Complete Series
Type:
Video > TV shows
Files:
13
Size:
4.44 GiB (4763649216 Bytes)
Info:
IMDB
Spoken language(s):
English
Uploaded:
2014-09-06 20:10:09 GMT
By:
horrorhound Helper
Seeders:
2
Leechers:
0
Comments
0  

Info Hash:
5E6C6E90BAE090B3D06F772EBE559768D5178955




(Problems with magnets links are fixed by upgrading your torrent client!)
screens: 
http://image.bayimg.com/507f40f57565c4569e0e8cab789d2b11be186f0c.jpg

This is a 90's found footage style x-files type series, most of the shows focus on finding proof of legends such as a desert squid, harbingers, bigfoot and such.
These are Chiller rips and the best quality found as of yet, enjoy!

Video
ID : 0
Format : MPEG-4 Visual
Format profile : Advanced [email protected]
Format settings, BVOP : 1
Format settings, QPel : No
Format settings, GMC : No warppoints
Format settings, Matrix : Custom
Codec ID : XVID
Codec ID/Hint : XviD
Duration : 44mn 13s
Bit rate : 977 Kbps
Width : 512 pixels
Height : 384 pixels
Display aspect ratio : 4:3
Frame rate : 29.970 fps
Color space : YUV
Chroma subsampling : 4:2:0
Bit depth : 8 bits
Scan type : Progressive
Compression mode : Lossy
Bits/(Pixel*Frame) : 0.166
Stream size : 309 MiB (88%)
Writing library : XviD 1.1.2 (UTC 2006-11-01)

Audio
ID : 1
Format : MPEG Audio
Format version : Version 1
Format profile : Layer 3
Mode : Joint stereo
Mode extension : MS Stereo
Codec ID : 55
Codec ID/Hint : MP3
Duration : 44mn 13s
Bit rate mode : Variable
Bit rate : 114 Kbps
Nominal bit rate : 128 Kbps
Channel(s) : 2 channels
Sampling rate : 48.0 KHz
Compression mode : Lossy
Stream size : 36.0 MiB (10%)
Alignment : Aligned on interleaves
Interleave, duration : 24 ms (0.72 video frame)
Interleave, preload duration : 557 ms
Writing library : LAME3.98r
Encoding settings : -m j -V 4 -q 2 -lowpass 17 --abr 128